为什么我不能在openCV中打开avi视频?
c++
image-processing
opencv
8
0

我只是用openCV2.3.1编写了一个简单的视频阅读示例,但看来我还是无法打开avi视频:(

VideoCapture capture("guitarplaying.avi");
if(!capture.isOpened()){
    std::cout<<"cannot read video!\n";
    return -1;
}
Mat frame;
namedWindow("frame");

double rate = capture.get(CV_CAP_PROP_FPS);
int delay = 1000/rate;

while(true)
{
    if(!capture.read(frame)){
        break;
    }
    imshow("frame",frame);

    if(waitKey(delay)>=0)
        break;
}

capture.release();

我在std::cout<<"cannot read video!\n"创建了一个断点,并发现它每次都在此处停止。那么,为什么无法打开avi视频?谢谢!

参考资料:
Stack Overflow
收藏
评论
共 3 个回答
高赞 时间 活跃

可能是您加载了错误的lib文件。就像我一样,我遇到了同样的问题。但是我可以在VC6.0中使用opencv 1.0版打开AVI文件。最后,我发现我使用了错误的lib。

在“调试模式”下,但我使用opencv_core220.libopencv_highgui220.lib 。然后将它们替换为opencv_core220d.libopencv_highgui220d.lib 。现在我可以阅读它了。

收藏
评论

1)
确保视频文件实际上与应用程序位于同一文件夹中(我假设您已经尝试过此操作),否则请指定绝对路径。

2)
如果您使用的是Windows,则可能需要一个编解码器包才能读取视频文件(例如K-Lite编解码器包 )。

正如Macmade所建议的,AVI只是一个可以容纳不同音频,视频甚至隐藏式字幕编解码器的容器。另外, 是Zeranoe针对Windows的FFmpeg构建。如果执行以下操作,则可以获得有关文件编解码器内容的更多信息:

ffmpeg -i guitarplaying.avi

您应该看到如下所示的输出:

ffmpeg version 0.8.7.git, Copyright (c) 2000-2011 the FFmpeg developers
  built on Dec  6 2011 09:20:43 with gcc 4.6.1
  configuration: --pkg-config=pkg-config --enable-gpl --enable-version3 --enable
-nonfree --enable-runtime-cpudetect --enable-memalign-hack --enable-postproc --a
rch=x86 --target-os=mingw32 --cross-prefix=i686-w64-mingw32- --prefix=/home/wluc
as/ffmpeg-cross/build/deploy --enable-libx264 --enable-libvpx --enable-zlib --en
able-bzlib --enable-libxvid --enable-libfaac --enable-libmp3lame --enable-libvor
bis --enable-libtheora --enable-libopenjpeg --enable-libfreetype
  libavutil    51. 30. 0 / 51. 30. 0
  libavcodec   53. 40. 0 / 53. 40. 0
  libavformat  53. 24. 0 / 53. 24. 0
  libavdevice  53.  4. 0 / 53.  4. 0
  libavfilter   2. 51. 0 /  2. 51. 0
  libswscale    2.  1. 0 /  2.  1. 0
  libpostproc  51.  2. 0 / 51.  2. 0
Input #0, mov,mp4,m4a,3gp,3g2,mj2, from '..\..\Videos\Sintel\sintel_trailer-720p
.mp4':
  Metadata:
    major_brand     : isom
    minor_version   : 512
    compatible_brands: isomiso2avc1mp41
    creation_time   : 1970-01-01 00:00:00
    title           : Sintel Trailer
    artist          : Durian Open Movie Team
    encoder         : Lavf52.62.0
    copyright       : (c) copyright Blender Foundation | durian.blender.org
    description     : Trailer for the Sintel open movie project
  Duration: 00:00:52.20, start: 0.000000, bitrate: 1165 kb/s
    Stream #0:0(und): Video: h264 (High) (avc1 / 0x31637661), yuv420p, 1280x720,
 1033 kb/s, 24 fps, 24 tbr, 24 tbn, 48 tbc
    Metadata:
      creation_time   : 1970-01-01 00:00:00
      handler_name    : VideoHandler
    Stream #0:1(und): Audio: aac (mp4a / 0x6134706D), 48000 Hz, stereo, s16, 126
 kb/s
    Metadata:
      creation_time   : 1970-01-01 00:00:00
      handler_name    :

因此,如您所见,.mp4容器具有H.264视频编解码器和AAC音频编解码器。

收藏
评论

缺少的OpenCV的ffmpeg.dll在OpenCV 2.3.1中不会生成任何警告/错误,并且代码会静默失败。确保您的路径中有正确的opencv_ffmpeg * .dll。

收藏
评论
新手导航
  • 社区规范
  • 提出问题
  • 进行投票
  • 个人资料
  • 优化问题
  • 回答问题